Bullett Raja 2013 Hindi Movies HDSCamRip XviD with Sample ~ ☻rDX☻

Removed by the request of copyright owner, 1 year ago
Added on Nov 29, 2013 by teamrdx8400 in Movies > Bollywood
Torrent verified. Downloaded 13,523 times.

Bullett Raja 2013 Hindi Movies HDSCamRip XviD with Sample ~ ☻rDX☻ (Size: 897.28 MB)
  Bullett Raja 2013 Hindi Movies HDSCamRip xviD ~ ☻rDX☻.avi 889.62 MB
  Sample ~ Bullett Raja 2013 Hindi Movies HDSCamRip xviD ~ ☻rDX☻.avi 7.66 MB

Description

image

Bullett Raja 2013 Hindi Movies HDSCamRip xviD with Sample ~ ☻rDX☻

Please check SCREEN SHOTS first :

http://moviereview.cu.cc/2013/12/BullettRaja/1.html

http://moviereview.cu.cc/2013/12/BullettRaja/2.html

http://moviereview.cu.cc/2013/12/BullettRaja/3.html

http://moviereview.cu.cc/2013/12/BullettRaja/4.html

http://moviereview.cu.cc/2013/12/BullettRaja/5.html

http://moviereview.cu.cc/2013/12/BullettRaja/6.html


All rDX torrents are Seeding From the 1Gbps Seedbox 24X7

image

image

image

image

Format : AVI
Format/Info : Audio Video Interleave
File size : 890 MiB
Duration : 2h 4mn
Overall bit rate : 998 Kbps
Writing library : MPlayer

Video
ID : 0
Format : MPEG-4 Visual
Format profile : Simple@L3
Format settings, BVOP : No
Format settings, QPel : No
Format settings, GMC : No warppoints
Format settings, Matrix : Default (H.263)
Codec ID : XVID
Codec ID/Hint : XviD
Duration : 2h 4mn
Bit rate : 857 Kbps
Width : 352 pixels
Height : 288 pixels
Display aspect ratio : 4:3
Frame rate : 29.970 fps
Standard : PAL
Color space : YUV
Chroma subsampling : 4:2:0
Bit depth : 8 bits
Scan type : Progressive
Compression mode : Lossy
Bits/(Pixel*Frame) : 0.282
Stream size : 764 MiB (86%)
Writing library : XviD 1.2.1 (UTC 2008-12-04)

Audio
ID : 1
Format : MPEG Audio
Format version : Version 1
Format profile : Layer 3
Mode : Joint stereo
Mode extension : MS Stereo
Codec ID : 55
Codec ID/Hint : MP3
Duration : 2h 4mn
Bit rate mode : Constant
Bit rate : 128 Kbps
Channel(s) : 2 channels
Sampling rate : 44.1 KHz
Compression mode : Lossy
Stream size : 114 MiB (13%)
Alignment : Aligned on interleaves
Interleave, duration : 26 ms (0.78 video frame)
Interleave, preload duration : 522 ms

Trackers

tracker name Status checked seeders leechers downloads
udp://9.rarbg.com:2710/announce
outdated 05 Dec 2013 - - -
udp://tracker.publicbt.com:80/announce
outdated 05 Dec 2013 - - -
udp://tracker.istole.it:80/announce
outdated 05 Dec 2013 - - -
udp://tracker.openbittorrent.com:80/announce
outdated 05 Dec 2013 - - -
udp://11.rarbg.com:80/announce
private 05 Dec 2013 - - -
udp://tracker.seedceo.com:2710/announce
blocked 01 Dec 2013 - - -
http://tracker.trackerfix.com/announce
deleted 05 Dec 2013 - - -
udp://fr33domtracker.h33t.com:3310/announce
deleted 01 Dec 2013 - - -
udp://fr33dom.h33t.com:3310/announce
deleted 01 Dec 2013 - - -
http://fr33dom.h33t.com:3310/announce
deleted 01 Dec 2013 - - -

Torrent hash: D5CA2E1E6CC7EF71A6D6E5B4315F7A27E04A5A9B

All Comments

audio
3/10
video
3/10
please, leave only comments related to that torrent
0
DrtiCZ11 • 03 December 2013, 16:39
Comment is deleted
0
anonymous • 03 December 2013, 17:13
Why don't you go fuck yourself. Who cares if you watch or not asshole.
0
anonymous • 03 December 2013, 13:59
WHAT THE FU*K WITH ALL THESE HINDI 'MOVIES' ?!?!
-1
anonymous • 03 December 2013, 13:57
what the fuck with all this hindi 'movies' ???
0
anonymous • 03 December 2013, 06:39
Please upload Bhaji in problem punjabi movie
0
blackace114466 • 03 December 2013, 06:24
torrent downloaded
audio: 6video: 6
watchable
0
rbond60 • 02 December 2013, 17:57
are yar janta ko chutiya bana na chhod de vaiiiiiiiiiiii
Show More All

User Opinions

aceg153383, SayantanDas202250, RokOnDaGrave1328, teamdono1214, snskabi1004, dilipkk898, drmansoor211, hidayat_shar112, hbiilm85, himnadi10011 ... And 60 more
Jyotirmoy3940, Immad7892631, ultimatepi645, zoom3030220, mooksh83216, nainesh123204, hitesh_v_ker157, inspector420149, shahaniruddh77, undermylaw20 ... And 33 more