Bullett Raja 2013 Hindi Movies HDSCamRip XviD with Sample ~ ☻rDX☻

seeders: 3
leechers: 206
Added on Nov 29, 2013 by teamrdx2049 in Movies > Bollywood
Torrent verified. Downloaded 0 times.

Bullett Raja 2013 Hindi Movies HDSCamRip XviD with Sample ~ ☻rDX☻ (Size: 897.28 MB)
  Bullett Raja 2013 Hindi Movies HDSCamRip xviD ~ ☻rDX☻.avi 889.62 MB
  Sample ~ Bullett Raja 2013 Hindi Movies HDSCamRip xviD ~ ☻rDX☻.avi 7.66 MB

Description

image

Bullett Raja 2013 Hindi Movies HDSCamRip xviD with Sample ~ ☻rDX☻

Please check SCREEN SHOTS first :

http://moviereview.cu.cc/2013/12/BullettRaja/1.html

http://moviereview.cu.cc/2013/12/BullettRaja/2.html

http://moviereview.cu.cc/2013/12/BullettRaja/3.html

http://moviereview.cu.cc/2013/12/BullettRaja/4.html

http://moviereview.cu.cc/2013/12/BullettRaja/5.html

http://moviereview.cu.cc/2013/12/BullettRaja/6.html


All rDX torrents are Seeding From the 1Gbps Seedbox 24X7

image

image

image

image

Format : AVI
Format/Info : Audio Video Interleave
File size : 890 MiB
Duration : 2h 4mn
Overall bit rate : 998 Kbps
Writing library : MPlayer

Video
ID : 0
Format : MPEG-4 Visual
Format profile : Simple@L3
Format settings, BVOP : No
Format settings, QPel : No
Format settings, GMC : No warppoints
Format settings, Matrix : Default (H.263)
Codec ID : XVID
Codec ID/Hint : XviD
Duration : 2h 4mn
Bit rate : 857 Kbps
Width : 352 pixels
Height : 288 pixels
Display aspect ratio : 4:3
Frame rate : 29.970 fps
Standard : PAL
Color space : YUV
Chroma subsampling : 4:2:0
Bit depth : 8 bits
Scan type : Progressive
Compression mode : Lossy
Bits/(Pixel*Frame) : 0.282
Stream size : 764 MiB (86%)
Writing library : XviD 1.2.1 (UTC 2008-12-04)

Audio
ID : 1
Format : MPEG Audio
Format version : Version 1
Format profile : Layer 3
Mode : Joint stereo
Mode extension : MS Stereo
Codec ID : 55
Codec ID/Hint : MP3
Duration : 2h 4mn
Bit rate mode : Constant
Bit rate : 128 Kbps
Channel(s) : 2 channels
Sampling rate : 44.1 KHz
Compression mode : Lossy
Stream size : 114 MiB (13%)
Alignment : Aligned on interleaves
Interleave, duration : 26 ms (0.78 video frame)
Interleave, preload duration : 522 ms

Sharing Widget


Download torrent
897.28 MB
seeders:3
leechers:206
Bullett Raja 2013 Hindi Movies HDSCamRip XviD with Sample ~ ☻rDX☻

Trackers

tracker name Status checked seeders leechers downloads
udp://tracker.publicbt.com:80/announce
active 1 hour ago 3 133 0
udp://tracker.openbittorrent.com:80/announce
active 1 hour ago 1 194 0
http://tracker.ex.ua/announce
active 2 hours ago 0 0 0
udp://tracker.istole.it:80/announce
active 2 hours ago 0 0 0
udp://www.h33t.com:3310/announce
deleted 2 hours ago - - -
http://fr33dom.h33t.com:3310/announce
deleted 2 hours ago - - -
udp://fr33domtracker.h33t.com:3310/announce
deleted 2 hours ago - - -
udp://fr33dom.h33t.com:3310/announce
deleted 2 hours ago - - -
udp://11.rarbg.com:80/announce
private 1 hour ago 1 196 0
udp://9.rarbg.com:2710/announce
pending 1 hour ago 0 206 0

Torrent hash: D5CA2E1E6CC7EF71A6D6E5B4315F7A27E04A5A9B

All Comments

Comment as a guest or

audio
0/10
video
0/10
please, leave only comments related to that torrent