Darr @ The Mall 2014 Hindi Movies XViD with Sample ~ ☻rDX☻

seeders: 46
leechers: 18
Added on February 24, 2014 by teamrdxin Movies > Bollywood
Torrent verified. Downloaded 29,844 times.



Darr @ The Mall 2014 Hindi Movies XViD with Sample ~ ☻rDX☻ (Size: 708.7 MB)
 Darr @ The Mall 2014 Hindi Movies PDVDRip XViD ~ ☻rDX☻.mkv700.35 MB
 Sample ~ Darr @ The Mall 2014 Hindi Movies PDVDRip XViD ~ ☻rDX☻.mkv8.36 MB

Description



Darr @ The Mall 2014 Hindi Movies PDVDRip XViD with Sample ~ ☻rDX☻

Screen Shots

http://moviesreviews.cu.cc/2014/2/DarrAtTheMallpd/1.html
http://moviesreviews.cu.cc/2014/2/DarrAtTheMallpd/2.html
http://moviesreviews.cu.cc/2014/2/DarrAtTheMallpd/3.html
http://moviesreviews.cu.cc/2014/2/DarrAtTheMallpd/4.html
http://moviesreviews.cu.cc/2014/2/DarrAtTheMallpd/5.html
http://moviesreviews.cu.cc/2014/2/DarrAtTheMallpd/6.html
http://moviesreviews.cu.cc/2014/2/DarrAtTheMallpd/7.html
http://moviesreviews.cu.cc/2014/2/DarrAtTheMallpd/8.html
http://moviesreviews.cu.cc/2014/2/DarrAtTheMallpd/9.html
http://moviesreviews.cu.cc/2014/2/DarrAtTheMallpd/10.html


All rDX torrents are Seeding From the 1Gbps Seedbox 24X7



File size : 700 MiB
Duration : 2h 2mn
Overall bit rate : 802 Kbps
Movie name : Darr @ The Mall 2014 Hindi Movies PDVDRip XViD ~ rDX ~

Video
ID : 1
Format : MPEG-4 Visual
Format profile : Advanced Simple@L5
Format settings, BVOP : Yes
Format settings, QPel : No
Format settings, GMC : No warppoints
Format settings, Matrix : Default (H.263)
Codec ID : V_MS/VFW/FOURCC / XVID
Codec ID/Hint : XviD
Duration : 2h 2mn
Bit rate : 713 Kbps
Width : 640 pixels
Height : 272 pixels
Display aspect ratio : 2.35:1
Frame rate mode : Constant
Frame rate : 24.000 fps
Color space : YUV
Chroma subsampling : 4:2:0
Bit depth : 8 bits
Scan type : Progressive
Compression mode : Lossy
Bits/(Pixel*Frame) : 0.171
Stream size : 623 MiB (89%)
Title : ~ rDX ~
Writing library : XviD 1.2.1 (UTC 2008-12-04)
Default : Yes
Forced : No

Audio
ID : 2
Format : MPEG Audio
Format version : Version 2
Format profile : Layer 3
Mode : Joint stereo
Mode extension : MS Stereo
Codec ID : A_MPEG/L3
Codec ID/Hint : MP3
Duration : 2h 2mn
Bit rate mode : Constant
Bit rate : 48.0 Kbps
Channel(s) : 2 channels
Sampling rate : 22.05 KHz
Compression mode : Lossy
Stream size : 41.9 MiB (6%)
Title : ~ rDX ~
Writing library : LAME3.99.5UUUUUULAME
Default : Yes
Forced : No

Related Torrents

torrent name size seed leech

Sharing Widget


Download torrent
708.7 MB
seeders:46
leechers:18
Darr @ The Mall 2014 Hindi Movies XViD with Sample ~ ☻rDX☻

All Comments

pkijazahmad • 7 May 2014, 18:57
sirf triler par log draa rahy ho .......hahahahahahaha..?
pkijazahmad • 7 May 2014, 18:53
v v bad movie ..................
luckyamc • 15 April 2014, 17:43
poor print. dont download... hello user can u do something with the clarity..???
faizrabi • 14 April 2014, 08:32
Not Good Pint...........Piz Upload HD All Movie
shahzaib786 • 11 April 2014, 07:37
plz 720p upload
i am waiting
Negenius • 17 March 2014, 14:10
simply awesome !!