Darr @ The Mall 2014 Hindi Movies XViD with Sample ~ ☻rDX☻

seeders: 81
leechers: 23
Added on Feb 24, 2014 by teamrdx5256 in Movies > Bollywood
Torrent verified. Downloaded 31,395 times.


Darr @ The Mall 2014 Hindi Movies XViD with Sample ~ ☻rDX☻ (Size: 708.7 MB)
  Darr @ The Mall 2014 Hindi Movies PDVDRip XViD ~ ☻rDX☻.mkv 700.35 MB
  Sample ~ Darr @ The Mall 2014 Hindi Movies PDVDRip XViD ~ ☻rDX☻.mkv 8.36 MB

Description

image

Darr @ The Mall 2014 Hindi Movies PDVDRip XViD with Sample ~ ☻rDX☻

Screen Shots

http://moviesreview.cu.cc/2014/2/DarrAtTheMallpd/1.html
http://moviesreview.cu.cc/2014/2/DarrAtTheMallpd/2.html
http://moviesreview.cu.cc/2014/2/DarrAtTheMallpd/3.html
http://moviesreview.cu.cc/2014/2/DarrAtTheMallpd/4.html
http://moviesreview.cu.cc/2014/2/DarrAtTheMallpd/5.html
http://moviesreview.cu.cc/2014/2/DarrAtTheMallpd/6.html
http://moviesreview.cu.cc/2014/2/DarrAtTheMallpd/7.html
http://moviesreview.cu.cc/2014/2/DarrAtTheMallpd/8.html
http://moviesreview.cu.cc/2014/2/DarrAtTheMallpd/9.html
http://moviesreview.cu.cc/2014/2/DarrAtTheMallpd/10.html


All rDX torrents are Seeding From the 1Gbps Seedbox 24X7

image

File size : 700 MiB
Duration : 2h 2mn
Overall bit rate : 802 Kbps
Movie name : Darr @ The Mall 2014 Hindi Movies PDVDRip XViD ~ rDX ~

Video
ID : 1
Format : MPEG-4 Visual
Format profile : Advanced Simple@L5
Format settings, BVOP : Yes
Format settings, QPel : No
Format settings, GMC : No warppoints
Format settings, Matrix : Default (H.263)
Codec ID : V_MS/VFW/FOURCC / XVID
Codec ID/Hint : XviD
Duration : 2h 2mn
Bit rate : 713 Kbps
Width : 640 pixels
Height : 272 pixels
Display aspect ratio : 2.35:1
Frame rate mode : Constant
Frame rate : 24.000 fps
Color space : YUV
Chroma subsampling : 4:2:0
Bit depth : 8 bits
Scan type : Progressive
Compression mode : Lossy
Bits/(Pixel*Frame) : 0.171
Stream size : 623 MiB (89%)
Title : ~ rDX ~
Writing library : XviD 1.2.1 (UTC 2008-12-04)
Default : Yes
Forced : No

Audio
ID : 2
Format : MPEG Audio
Format version : Version 2
Format profile : Layer 3
Mode : Joint stereo
Mode extension : MS Stereo
Codec ID : A_MPEG/L3
Codec ID/Hint : MP3
Duration : 2h 2mn
Bit rate mode : Constant
Bit rate : 48.0 Kbps
Channel(s) : 2 channels
Sampling rate : 22.05 KHz
Compression mode : Lossy
Stream size : 41.9 MiB (6%)
Title : ~ rDX ~
Writing library : LAME3.99.5UUUUUULAME
Default : Yes
Forced : No

Related Torrents

torrent name size files age seed leech

Sharing Widget


Download torrent
708.7 MB
seeders:81
leechers:23
Darr @ The Mall 2014 Hindi Movies XViD with Sample ~ ☻rDX☻

Trackers

tracker name Status checked seeders leechers downloads
udp://tracker.openbittorrent.com:80/announce
active 15 May 2014 65 23 10
udp://tracker.publicbt.com:80/announce
active 15 May 2014 60 14 10
http://tracker.ex.ua/announce
active 15 May 2014 81 20 31395
udp://tracker.istole.it:80/announce
deleted 14 May 2014 - - -
udp://www.h33t.com:3310/announce
deleted 02 Mar 2014 - - -
http://fr33dom.h33t.com:3310/announce
deleted 02 Mar 2014 - - -
udp://fr33dom.h33t.com:3310/announce
deleted 02 Mar 2014 - - -
udp://fr33domtracker.h33t.com:3310/announce
deleted 02 Mar 2014 - - -
udp://9.rarbg.com:2710/announce
pending 15 May 2014 65 19 29587
udp://11.rarbg.com:80/announce
private 15 May 2014 58 20 10

Torrent hash: AA2742A051E0BBE6AECFC411C639AA8FE89ECBD7

All Comments

audio
5/10
video
4/10
please, leave only comments related to that torrent
0
Joel9654342 • 26 May 2014, 12:26
bad movie
0
pkijazahmad174 • 07 May 2014, 18:57
sirf triler par log draa rahy ho .......hahahahahahaha..?
0
pkijazahmad174 • 07 May 2014, 18:53
audio: 1video: 2
v v bad movie ..................
0
anonymous • 04 May 2014, 10:33
~ ☻rDX☻ you are your all movies you upload all print are very good so thnx for uploading ~ ☻rDX☻
0
luckyamc154 • 15 April 2014, 17:43
torrent downloaded
audio: 5video: 1
poor print. dont download... hello user can u do something with the clarity..???
0
faizrabi3 • 14 April 2014, 08:32
Not Good Pint...........Piz Upload HD All Movie
0
shahzaib78635 • 11 April 2014, 07:37
torrent downloaded
plz 720p upload
i am waiting

Last edited by shahzaib786, 1 month ago

0
anonymous • 25 March 2014, 14:50
maha ghatiya print....
0
anonymous • 23 March 2014, 13:10
Print is really bad. Waiting for good print
0
Negenius2737 • 17 March 2014, 14:10
torrent downloaded
simply awesome !!
Show More

User Opinions

ranasalman0073534, Negenius2737, amiaham2011, bharatvellanki697, raveed549, darklid352, varun69321, kasinath122, coalminer08110, Abhinit13 ... And 137 more
omr4801387, abhijitgoyal970, bubnee768, paragpandya_in724, firose680, dugu371191, luckyamc154, aman009138, engg.ashish104, imranaryan4 ... And 41 more
--> --> --> --> --> -->