Resident Evil Retribution 2012 CAMRip RUS XviD

Removed by the request of copyright owner, 2 years ago
Added on Sep 15, 2012 by Silmarillion254.86K in Movies
Torrent verified. Downloaded once.

Summary:
Alice fights alongside a resistance movement in the continuing battle against the Umbrella Corporation and the undead.
Submitted by MoonChild9788
report summary
Available in versions: 1080p720pBDRipHDRiPDVDDVDRipTeleSync
Resident Evil Retribution 2012 CAMRip RUS XviD (Size: 1.35 GB)
  Obitel.Zla.Vomezdie.2012.CamRip..avi 1.35 GB

Description

image


http://www.imdb.com/title/tt1855325/




Resident Evil: Retribution (2012)

95 min - Action | Horror | Sci-Fi

Ratings: 6.6/10 from 4,381 users
Reviews: 45 user



Plot:Alice fights alongside a resistance movement in the continuing battle against the Umbrella Corporation and the undead.



Director:
Paul W.S. Anderson

Writer:
Paul W.S. Anderson

Stars:
Milla Jovovich, Sienna Guillory and Michelle Rodriguez




Format : AVI
Format/Info : Audio Video Interleave
Format profile : OpenDML
File size : 1.35 GiB
Duration : 1h 24mn
Overall bit rate : 2 271 Kbps

Video
ID : 0
Format : MPEG-4 Visual
Format profile : Simple@L3
Format settings, BVOP : No
Format settings, QPel : No
Format settings, GMC : No warppoints
Format settings, Matrix : Default (H.263)
Codec ID : XVID
Codec ID/Hint : XviD
Duration : 1h 24mn
Bit rate : 2 000 Kbps
Width : 752 pixels
Height : 320 pixels
Display aspect ratio : 2.2:1
Frame rate : 25.000 fps
Color space : YUV
Chroma subsampling : 4:2:0
Bit depth : 8 bits
Scan type : Progressive
Compression mode : Lossy
Bits/(Pixel*Frame) : 0.332
Stream size : 1.19 GiB (88%)
Writing library : XviD 64

Audio
ID : 1
Format : MPEG Audio
Format version : Version 1
Format profile : Layer 3
Codec ID : 55
Codec ID/Hint : MP3
Duration : 1h 24mn
Bit rate mode : Constant
Bit rate : 256 Kbps
Channel(s) : 2 channels
Sampling rate : 48.0 KHz
Compression mode : Lossy
Stream size : 155 MiB (11%)
Alignment : Aligned on interleaves
Interleave, duration : 24 ms (0.60 video frame)

Screens:


http://darkscreen.info/?v=vlcsnaqrq.png
http://darkscreen.info/?v=vlcsnavxv.png
http://darkscreen.info/?v=vlcsnamum.png
http://darkscreen.info/?v=vlcsnaaja.png

Trackers

tracker name Status checked seeders leechers downloads
http://tracker.ccc.de/announce
outdated 16 Oct 2012 - - -
http://tracker.istole.it/announce
outdated 15 Sep 2012 - - -
http://pow7.com/announce
outdated 15 Sep 2012 - - -
udp://tracker.publicbt.com:80/announce
outdated 15 Sep 2012 - - -
http://tracker.istole.it:6969/announce
outdated 15 Sep 2012 - - -
http://ipv4.tracker.harry.lu/announce
outdated 15 Sep 2012 - - -
udp://tracker.istole.it:80/announce
outdated 15 Sep 2012 - - -
http://tracker.publicbt.com/announce
deleted 15 Sep 2012 - - -
udp://tracker.ccc.de:80/announce
deleted 15 Sep 2012 - - -
udp://tracker.istole.it:6969/announce
pending 15 Sep 2012 4 94 0

Torrent hash: 10B00CC0A83B4E347793F126D0C430C4798E199E

All Comments

audio
0/10
video
0/10
please, leave only comments related to that torrent