Baggage Claim 2013 CAM XViD UNiQUE

seeders: 123
leechers: 21
Added on October 6, 2013 by z0n321in Movies
Torrent verified.

Available in versions: 1080p720pBDRipHDRiPDVDDVDRipCam

Baggage Claim 2013 CAM XViD UNiQUE (Size: 1.38 GB)
 sample.avi12.3 MB
 unique.nfo3.64 KB
 Baggage.avi1.37 GB


Format: AVI
Format/Info: Audio Video Interleave
File size: 1.37 GiB
Duration: 1h 33mn
Overall bit rate: 2 089 Kbps
Writing application: VirtualDubMod (build 2540/release)
Writing library: VirtualDubMod build 2540/release

ID: 0
Format: MPEG-4 Visual
Format profile: Advanced Simple@L5
Format settings, BVOP: 2
Format settings, QPel: No
Format settings, GMC: No warppoints
Format settings, Matrix: Default (H.263)
Muxing mode: Packed bitstream
Codec ID: XVID
Codec ID/Hint: XviD
Duration: 1h 33mn
Bit rate: 1 950 Kbps
Width: 720 pixels
Height: 364 pixels
Display aspect ratio: 1.978
Frame rate: 29.970 fps
Color space: YUV
Chroma subsampling: 4:2:0
Bit depth: 8 bits
Scan type: Progressive
Compression mode: Lossy
Bits/(Pixel*Frame): 0.248
Stream size: 1.28 GiB (93%)
Writing library: XviD 64

ID: 1
Format: AC-3
Format/Info: Audio Coding 3
Mode extension: CM (complete main)
Format settings, Endianness: Big
Codec ID: 2000
Duration: 1h 33mn
Bit rate mode: Constant
Bit rate: 128 Kbps
Channel(s): 2 channels
Channel positions: Front: L R
Sampling rate: 48.0 KHz
Bit depth: 16 bits
Compression mode: Lossy
Stream size: 85.7 MiB (6%)
Alignment: Split accross interleaves
Interleave, duration: 33 ms (1.00 video frame)
Interleave, preload duration: 500 ms


Determined to get engaged before her youngest sister's wedding, flight attendant Montana Moore (Paula Patton) finds herself with only 30 days to find Mr. Right. Using her airline connections to "accidentally" meet up with eligible ex-boyfriends and scour for potential candidates, she racks up more than 30,000 miles and countless comedic encounters, all the while searching for the perfect guy

Source Used baggage claim HDCAM Blacktop - Thanks

Greets now going out to !

JUSTiCE,KiSSMYACE and the rest can just KMA :lol:

Work done blah whats the point

Related Torrents

torrent name size seed leech

Sharing Widget

Download torrent
1.38 GB
Baggage Claim 2013 CAM XViD UNiQUE


All Comments

ok movie...
Decent audio, video is watchable... Thank you uploader.
A: 6 V: 8
2013-10-30 21:23