John Carter (2012) DVDRip XviD-MAXSPEED

seeders: 0
leechers: 0
Added on May 17, 2012 by piratepediain Movies
Torrent verified. Downloaded 135 times.



John Carter (2012) DVDRip XviD-MAXSPEED (Size: 1.3 GB)
 John Carter (2012) DVDRip XviD-MAXSPEED www.torentz.3xforum.ro.avi1.3 GB
 sample.avi6.06 MB
 screencaps.jpeg586.33 KB
 John Carter (2012) DVDRip XviD-MAXSPEED.nfo3.31 KB
 Torrent downloaded from Demonoid.me.txt46 bytes
 Torrent downloaded from extratorrent.com.txt40 bytes
 Torrent downloaded from Rarbg.com.txt33 bytes
 torrent downloaded from H33T.com.txt32 bytes

Description

http://www.torentz.3xforum.ro/post/2711/1/John_Carter_2012_DVDRip_XviD-MAXSPEED/


Screens:




Alternative:
http://www.postimg.com/image/70000/photo-69883.jpghttp://www.postimg.com/image/70000/photo-69884.jpghttp://www.postimg.com/image/70000/photo-69885.jpghttp://www.postimg.com/image/70000/photo-69886.jpg

ScreenCaps:

John Carter (2012) DVDRip XviD-MAXSPEEDFormat : AVIFormat/Info : Audio Video InterleaveFormat profile : OpenDMLFormat settings : recFile size : 1.30 GiBDuration : 2h 12mnOverall bit rate : 1 406 KbpsWriting application : VirtualDubMod 1.5.10.2 (build 2542/release)Writing library : VirtualDubMod build 2542/releaseOriginal source form : MAX TORRENTZCopyright : SIGISMUNTVideoID : 0Format : MPEG-4 VisualFormat profile : Advanced Simple@L5Format settings, BVOP : 2Format settings, QPel : NoFormat settings, GMC : No warppointsFormat settings, Matrix : Default (MPEG)Codec ID : XVIDCodec ID/Hint : XviDDuration : 2h 12mnBit rate : 1 081 KbpsWidth : 608 pixelsHeight : 256 pixelsDisplay aspect ratio : 2.40:1Frame rate : 23.976 fpsColor space : YUVChroma subsampling : 4:2:0Bit depth : 8 bitsScan type : ProgressiveCompression mode : LossyBits/(Pixel*Frame) : 0.290Stream size : 1 021 MiB (77%)Writing library : XviD 64AudioID : 1Format : AC-3Format/Info : Audio Coding 3Mode extension : CM (complete main)Format settings, Endianness : BigCodec ID : 2000Duration : 2h 12mnBit rate mode : ConstantBit rate : 320 KbpsChannel(s) : 6 channelsChannel positions : Front: L C R, Side: L R, LFESampling rate : 48.0 KHzBit depth : 16 bitsCompression mode : LossyStream size : 302 MiB (23%)Alignment : Aligned on interleavesInterleave, duration : 64 ms (1.53 video frames)Interleave, preload duration : 192 msSource: DVD (perfect a/v/sync quality,sample included)This torrent is not seedbox supported,please seed it to the MAXNote:If you have something to offer as early releases,seedboxes,links,accounts,etc please contact us on torentz 3xforum roHow To Get Your Maxspeed (uTorrent)Torrent Client - Preferences - Bandwidth - Number of connections - Set aprox. 500 for each Torrent Client - Preferences - BiTorrent - Protocol Encryption - ForcedBandwidth Allocation - High (Set download/upload limit - Unlimited)Stop Other Active Torrents - Start downloading and wait for connections.Enjoy and Seed for at least 1:1 ratio. Don't forget to say thanks/leave reviews.Before downloading you should check/google search sample "release name""sample".Greets to all actual/future p2p/scene QUALITY groups and affiliate websites.Don't trust IMDb robot or bad ratings,always watch some trailers first.Ignore stupid comments/fake/mislabeled/no-DVDrips/CAM/TS/RAR uploads.Please spread this release/torrent to your friends/forums/etc.If you need translation subs visit some subtitles sites.Report if you see online streaming or other spam links.Recommended movie player VLC PLAYER.

Related Torrents

torrent name size seed leech

Sharing Widget


Download torrent
1.3 GB
seeders:0
leechers:0
John Carter (2012) DVDRip XviD-MAXSPEED

Trailer


All Comments

Azza94 • 12 January 2014, 22:59
great torrent good movie
PJ132 • 8 December 2013, 02:59
super fast download, good quality, nice work!
int.k • 27 November 2013, 06:49
Nice one, thanks!
messi786 • 23 November 2013, 10:03
Awesome print
KONGAA • 25 October 2013, 12:54
thanks
Jackal385 • 14 October 2013, 19:20
Thank you I love this movie :)